The Devil’s Plan

The Devil’s Plan – It’s the ultimate showdown of wits, brains, strategy, and alliances for a chance to win 500 million won.

The Devil’s Plan

Release: WEB-DL 1080P
Filesize: 3,10 GB | S01 : 11,4 GB

Season 1 – WEB-DL 1080P

download The Devil

Spoiler

Video
ID : 1
Format : AVC
Format/Info : Advanced Video Codec
Format profile : Main@L4
Format settings : CABAC / 3 Ref Frames
Format settings, CABAC : Yes
Format settings, Reference fra : 3 frames
Codec ID : V_MPEG4/ISO/AVC
Duration : 1 h 11 min
Bit rate mode : Variable
Bit rate : 5 000 kb/s
Maximum bit rate : 7 500 kb/s
Width : 1 920 pixels
Height : 1 080 pixels
Display aspect ratio : 16:9
Frame rate mode : Constant
Frame rate : 23.976 (24000/1001) FPS
Color space : YUV
Chroma subsampling : 4:2:0
Bit depth : 8 bits
Scan type : Progressive
Bits/(Pixel*Frame) : 0.101
Stream size : 2.46 GiB (79%)
Writing library : x264 core 148 r2727 7d026e8
Encoding settings : cabac=1 / ref=3 / deblock=1:0:0 / analyse=0x1:0x111 / me=umh / subme=10 / psy=1 / psy_rd=1.00:0.00 / mixed_ref=1 / me_range=24 / chroma_me=1 / trellis=2 / 8x8dct=0 / cqm=0 / deadzone=21,11 / fast_pskip=1 / chroma_qp_offset=-2 / threads=6 / lookahead_threads=1 / sliced_threads=0 / nr=0 / decimate=1 / interlaced=0 / bluray_compat=0 / stitchable=1 / constrained_intra=0 / bframes=2 / b_pyramid=0 / b_adapt=2 / b_bias=0 / direct=3 / weightb=1 / open_gop=0 / weightp=2 / keyint=240 / keyint_min=121 / scenecut=0 / intra_refresh=0 / rc_lookahead=48 / rc=2pass / mbtree=1 / bitrate=5000 / ratetol=1.0 / qcomp=0.50 / qpmin=6 / qpmax=51 / qpstep=4 / cplxblur=20.0 / qblur=0.5 / vbv_maxrate=7500 / vbv_bufsize=10000 / nal_hrd=vbr / filler=0 / ip_ratio=1.40 / aq=1:1.00
Default : Yes
Forced : No

Audio #1
ID : 2
Format : E-AC-3
Format/Info : Enhanced AC-3
Commercial name : Dolby Digital Plus
Codec ID : A_EAC3
Duration : 1 h 11 min
Bit rate mode : Constant
Bit rate : 640 kb/s
Channel(s) : 6 channels
Channel layout : L R C LFE Ls Rs
Sampling rate : 48.0 kHz
Frame rate : 31.250 FPS (1536 SPF)
Compression mode : Lossy
Stream size : 329 MiB (10%)
Title : Brazilian
Language : Portuguese
Service kind : Complete Main
Default : Yes
Forced : No

Audio #2
ID : 3
Format : E-AC-3
Format/Info : Enhanced AC-3
Commercial name : Dolby Digital Plus
Codec ID : A_EAC3
Duration : 1 h 11 min
Bit rate mode : Constant
Bit rate : 640 kb/s
Channel(s) : 6 channels
Channel layout : L R C LFE Ls Rs
Sampling rate : 48.0 kHz
Frame rate : 31.250 FPS (1536 SPF)
Compression mode : Lossy
Stream size : 329 MiB (10%)
Language : Korean
Service kind : Complete Main
Default : No
Forced : No

Text #1
ID : 4
Format : UTF-8
Codec ID : S_TEXT/UTF8
Codec ID/Info : UTF-8 Plain Text
Duration : 1 h 9 min
Bit rate : 0 b/s
Frame rate : 0.004 FPS
Count of elements : 17
Stream size : 352 Bytes (0%)
Title : Brazilian (Forced)
Language : Portuguese
Default : Yes
Forced : Yes

Text #2
ID : 5
Format : UTF-8
Codec ID : S_TEXT/UTF8
Codec ID/Info : UTF-8 Plain Text
Duration : 1 h 9 min
Bit rate : 97 b/s
Frame rate : 0.401 FPS
Count of elements : 1682
Stream size : 50.1 KiB (0%)
Title : Brazilian Portuguese
Language : Portuguese
Default : No
Forced : No

Text #3
ID : 6
Format : UTF-8
Codec ID : S_TEXT/UTF8
Codec ID/Info : UTF-8 Plain Text
Duration : 1 h 7 min
Bit rate : 133 b/s
Frame rate : 0.407 FPS
Count of elements : 1654
Stream size : 66.3 KiB (0%)
Title : Brazilian Portuguese (dub)
Language : Portuguese
Default : No
Forced : No

Text #4
ID : 7
Format : UTF-8
Codec ID : S_TEXT/UTF8
Codec ID/Info : UTF-8 Plain Text
Duration : 1 h 9 min
Bit rate : 104 b/s
Frame rate : 0.408 FPS
Count of elements : 1711
Stream size : 53.4 KiB (0%)
Title : English
Language : English
Default : No
Forced : No

Text #5
ID : 8
Format : UTF-8
Codec ID : S_TEXT/UTF8
Codec ID/Info : UTF-8 Plain Text
Duration : 1 h 8 min
Bit rate : 141 b/s
Frame rate : 0.441 FPS
Count of elements : 1812
Stream size : 71.0 KiB (0%)
Title : English (SDH)
Language : English
Default : No
Forced : No

Text #6
ID : 9
Format : UTF-8
Codec ID : S_TEXT/UTF8
Codec ID/Info : UTF-8 Plain Text
Duration : 1 h 8 min
Bit rate : 124 b/s
Frame rate : 0.426 FPS
Count of elements : 1743
Stream size : 62.0 KiB (0%)
Title : English (dub)
Language : English
Default : No
Forced : No

Text #7
ID : 10
Format : UTF-8
Codec ID : S_TEXT/UTF8
Codec ID/Info : UTF-8 Plain Text
Duration : 1 h 7 min
Bit rate : 152 b/s
Frame rate : 0.432 FPS
Count of elements : 1755
Stream size : 75.6 KiB (0%)
Title : Korean
Language : Korean
Default : No
Forced : No

Text #8
ID : 11
Format : UTF-8
Codec ID : S_TEXT/UTF8
Codec ID/Info : UTF-8 Plain Text
Duration : 1 h 8 min
Bit rate : 165 b/s
Frame rate : 0.457 FPS
Count of elements : 1878
Stream size : 82.9 KiB (0%)
Title : Korean (SDH)
Language : Korean
Default : No
Forced : No

Text #9
ID : 12
Format : UTF-8
Codec ID : S_TEXT/UTF8
Codec ID/Info : UTF-8 Plain Text
Duration : 1 h 9 min
Bit rate : 172 b/s
Frame rate : 0.408 FPS
Count of elements : 1711
Stream size : 88.5 KiB (0%)
Title : Arabic
Language : Arabic
Default : No
Forced : No

Text #10
ID : 13
Format : UTF-8
Codec ID : S_TEXT/UTF8
Codec ID/Info : UTF-8 Plain Text
Duration : 1 h 9 min
Bit rate : 99 b/s
Frame rate : 0.407 FPS
Count of elements : 1710
Stream size : 50.8 KiB (0%)
Title : Czech
Language : Czech
Default : No
Forced : No

Text #11
ID : 14
Format : UTF-8
Codec ID : S_TEXT/UTF8
Codec ID/Info : UTF-8 Plain Text
Duration : 1 h 9 min
Bit rate : 98 b/s
Frame rate : 0.406 FPS
Count of elements : 1702
Stream size : 50.5 KiB (0%)
Title : Danish
Language : Danish
Default : No
Forced : No

Text #12
ID : 15
Format : UTF-8
Codec ID : S_TEXT/UTF8
Codec ID/Info : UTF-8 Plain Text
Duration : 1 h 9 min
Bit rate : 101 b/s
Frame rate : 0.408 FPS
Count of elements : 1711
Stream size : 52.1 KiB (0%)
Title : German
Language : German
Default : No
Forced : No

Text #13
ID : 16
Format : UTF-8
Codec ID : S_TEXT/UTF8
Codec ID/Info : UTF-8 Plain Text
Duration : 1 h 9 min
Bit rate : 175 b/s
Frame rate : 0.408 FPS
Count of elements : 1711
Stream size : 90.1 KiB (0%)
Title : Greek
Language : Greek
Default : No
Forced : No

Text #14
ID : 17
Format : UTF-8
Codec ID : S_TEXT/UTF8
Codec ID/Info : UTF-8 Plain Text
Duration : 1 h 9 min
Bit rate : 104 b/s
Frame rate : 0.408 FPS
Count of elements : 1711
Stream size : 53.4 KiB (0%)
Title : Spanish
Language : Spanish
Default : No
Forced : No

Text #15
ID : 18
Format : UTF-8
Codec ID : S_TEXT/UTF8
Codec ID/Info : UTF-8 Plain Text
Duration : 1 h 9 min
Bit rate : 98 b/s
Frame rate : 0.407 FPS
Count of elements : 1709
Stream size : 50.4 KiB (0%)
Title : European Spanish
Language : Spanish
Default : No
Forced : No

Text #16
ID : 19
Format : UTF-8
Codec ID : S_TEXT/UTF8
Codec ID/Info : UTF-8 Plain Text
Duration : 1 h 9 min
Bit rate : 103 b/s
Frame rate : 0.407 FPS
Count of elements : 1708
Stream size : 53.2 KiB (0%)
Title : Finnish
Language : Finnish
Default : No
Forced : No

Text #17
ID : 20
Format : UTF-8
Codec ID : S_TEXT/UTF8
Codec ID/Info : UTF-8 Plain Text
Duration : 1 h 9 min
Bit rate : 106 b/s
Frame rate : 0.407 FPS
Count of elements : 1708
Stream size : 54.5 KiB (0%)
Title : Filipino
Language : fil
Default : No
Forced : No

Text #18
ID : 21
Format : UTF-8
Codec ID : S_TEXT/UTF8
Codec ID/Info : UTF-8 Plain Text
Duration : 1 h 9 min
Bit rate : 105 b/s
Frame rate : 0.408 FPS
Count of elements : 1711
Stream size : 53.9 KiB (0%)
Title : French
Language : French
Default : No
Forced : No

Text #19
ID : 22
Format : UTF-8
Codec ID : S_TEXT/UTF8
Codec ID/Info : UTF-8 Plain Text
Duration : 1 h 9 min
Bit rate : 158 b/s
Frame rate : 0.408 FPS
Count of elements : 1711
Stream size : 81.1 KiB (0%)
Title : Hebrew
Language : Hebrew
Default : No
Forced : No

Text #20
ID : 23
Format : UTF-8
Codec ID : S_TEXT/UTF8
Codec ID/Info : UTF-8 Plain Text
Duration : 1 h 9 min
Bit rate : 90 b/s
Frame rate : 0.407 FPS
Count of elements : 1710
Stream size : 46.2 KiB (0%)
Title : Croatian
Language : Croatian
Default : No
Forced : No

Text #21
ID : 24
Format : UTF-8
Codec ID : S_TEXT/UTF8
Codec ID/Info : UTF-8 Plain Text
Duration : 1 h 9 min
Bit rate : 98 b/s
Frame rate : 0.407 FPS
Count of elements : 1710
Stream size : 50.2 KiB (0%)
Title : Hungarian
Language : Hungarian
Default : No
Forced : No

Text #22
ID : 25
Format : UTF-8
Codec ID : S_TEXT/UTF8
Codec ID/Info : UTF-8 Plain Text
Duration : 1 h 9 min
Bit rate : 108 b/s
Frame rate : 0.408 FPS
Count of elements : 1711
Stream size : 55.4 KiB (0%)
Title : Indonesian
Language : Indonesian
Default : No
Forced : No

Text #23
ID : 26
Format : UTF-8
Codec ID : S_TEXT/UTF8
Codec ID/Info : UTF-8 Plain Text
Duration : 1 h 9 min
Bit rate : 87 b/s
Frame rate : 0.396 FPS
Count of elements : 1663
Stream size : 45.0 KiB (0%)
Title : Italian
Language : Italian
Default : No
Forced : No

Text #24
ID : 27
Format : UTF-8
Codec ID : S_TEXT/UTF8
Codec ID/Info : UTF-8 Plain Text
Duration : 1 h 9 min
Bit rate : 88 b/s
Frame rate : 0.384 FPS
Count of elements : 1612
Stream size : 45.2 KiB (0%)
Title : Japanese
Language : Japanese
Default : No
Forced : No

Text #25
ID : 28
Format : UTF-8
Codec ID : S_TEXT/UTF8
Codec ID/Info : UTF-8 Plain Text
Duration : 1 h 9 min
Bit rate : 108 b/s
Frame rate : 0.408 FPS
Count of elements : 1711
Stream size : 55.4 KiB (0%)
Title : Malay
Language : Malay
Default : No
Forced : No

Text #26
ID : 29
Format : UTF-8
Codec ID : S_TEXT/UTF8
Codec ID/Info : UTF-8 Plain Text
Duration : 1 h 9 min
Bit rate : 96 b/s
Frame rate : 0.408 FPS
Count of elements : 1711
Stream size : 49.5 KiB (0%)
Title : Norwegian
Language : Norwegian Bokmal
Default : No
Forced : No

Text #27
ID : 30
Format : UTF-8
Codec ID : S_TEXT/UTF8
Codec ID/Info : UTF-8 Plain Text
Duration : 1 h 9 min
Bit rate : 97 b/s
Frame rate : 0.396 FPS
Count of elements : 1660
Stream size : 50.1 KiB (0%)
Title : Dutch
Language : Dutch
Default : No
Forced : No

Text #28
ID : 31
Format : UTF-8
Codec ID : S_TEXT/UTF8
Codec ID/Info : UTF-8 Plain Text
Duration : 1 h 9 min
Bit rate : 97 b/s
Frame rate : 0.407 FPS
Count of elements : 1710
Stream size : 49.8 KiB (0%)
Title : Polish
Language : Polish
Default : No
Forced : No

Text #29
ID : 32
Format : UTF-8
Codec ID : S_TEXT/UTF8
Codec ID/Info : UTF-8 Plain Text
Duration : 1 h 9 min
Bit rate : 103 b/s
Frame rate : 0.408 FPS
Count of elements : 1710
Stream size : 53.2 KiB (0%)
Title : Portuguese
Language : Portuguese
Default : No
Forced : No

Text #30
ID : 33
Format : UTF-8
Codec ID : S_TEXT/UTF8
Codec ID/Info : UTF-8 Plain Text
Duration : 1 h 9 min
Bit rate : 102 b/s
Frame rate : 0.406 FPS
Count of elements : 1703
Stream size : 52.6 KiB (0%)
Title : Romanian
Language : Romanian
Default : No
Forced : No

Text #31
ID : 34
Format : UTF-8
Codec ID : S_TEXT/UTF8
Codec ID/Info : UTF-8 Plain Text
Duration : 1 h 9 min
Bit rate : 97 b/s
Frame rate : 0.408 FPS
Count of elements : 1711
Stream size : 49.9 KiB (0%)
Title : Swedish
Language : Swedish
Default : No
Forced : No

Text #32
ID : 35
Format : UTF-8
Codec ID : S_TEXT/UTF8
Codec ID/Info : UTF-8 Plain Text
Duration : 1 h 9 min
Bit rate : 269 b/s
Frame rate : 0.408 FPS
Count of elements : 1711
Stream size : 138 KiB (0%)
Title : Thai
Language : Thai
Default : No
Forced : No

Text #33
ID : 36
Format : UTF-8
Codec ID : S_TEXT/UTF8
Codec ID/Info : UTF-8 Plain Text
Duration : 1 h 9 min
Bit rate : 98 b/s
Frame rate : 0.408 FPS
Count of elements : 1711
Stream size : 50.5 KiB (0%)
Title : Turkish
Language : Turkish
Default : No
Forced : No

Text #34
ID : 37
Format : UTF-8
Codec ID : S_TEXT/UTF8
Codec ID/Info : UTF-8 Plain Text
Duration : 1 h 9 min
Bit rate : 162 b/s
Frame rate : 0.407 FPS
Count of elements : 1708
Stream size : 83.3 KiB (0%)
Title : Ukrainian
Language : Ukrainian
Default : No
Forced : No

Text #35
ID : 38
Format : UTF-8
Codec ID : S_TEXT/UTF8
Codec ID/Info : UTF-8 Plain Text
Duration : 1 h 9 min
Bit rate : 139 b/s
Frame rate : 0.408 FPS
Count of elements : 1712
Stream size : 71.4 KiB (0%)
Title : Vietnamese
Language : Vietnamese
Default : No
Forced : No

Text #36
ID : 39
Format : UTF-8
Codec ID : S_TEXT/UTF8
Codec ID/Info : UTF-8 Plain Text
Duration : 1 h 9 min
Bit rate : 99 b/s
Frame rate : 0.412 FPS
Count of elements : 1729
Stream size : 51.0 KiB (0%)
Title : Traditional Chinese
Language : Chinese
Default : No
Forced : No

Text #37
ID : 40
Format : UTF-8
Codec ID : S_TEXT/UTF8
Codec ID/Info : UTF-8 Plain Text
Duration : 1 h 9 min
Bit rate : 98 b/s
Frame rate : 0.412 FPS
Count of elements : 1729
Stream size : 50.4 KiB (0%)
Title : Simplified Chinese
Language : Chinese
Default : No
Forced : No

Text #38
ID : 41
Format : UTF-8
Codec ID : S_TEXT/UTF8
Codec ID/Info : UTF-8 Plain Text
Duration : 1 h 7 min
Bit rate : 97 b/s
Frame rate : 0.329 FPS
Count of elements : 1334
Stream size : 48.4 KiB (0%)
Title : German (dub)
Language : German
Default : No
Forced : No

Text #39
ID : 42
Format : UTF-8
Codec ID : S_TEXT/UTF8
Codec ID/Info : UTF-8 Plain Text
Duration : 1 h 7 min
Bit rate : 115 b/s
Frame rate : 0.426 FPS
Count of elements : 1731
Stream size : 57.4 KiB (0%)
Title : French (dub)
Language : French
Default : No
Forced : No

Text #40
ID : 43
Format : UTF-8
Codec ID : S_TEXT/UTF8
Codec ID/Info : UTF-8 Plain Text
Duration : 1 h 7 min
Bit rate : 111 b/s
Frame rate : 0.385 FPS
Count of elements : 1562
Stream size : 55.0 KiB (0%)
Title : Italian (dub)
Language : Italian
Default : No
Forced : No

Text #41
ID : 44
Format : UTF-8
Codec ID : S_TEXT/UTF8
Codec ID/Info : UTF-8 Plain Text
Duration : 1 h 8 min
Bit rate : 178 b/s
Frame rate : 0.414 FPS
Count of elements : 1695
Stream size : 88.9 KiB (0%)
Title : Vietnamese (dub)
Language : Vietnamese
Default : No
Forced : No


Visit our forum / Movies Request

download The Devil

Log in

Don't have account? Sign Up
Sign up

Already have an account? Log in